<?xml version="1.0" standalone="no"?>
<!DOCTYPE svg PUBLIC "-//W3C//DTD SVG 1.1//EN" "http://www.w3.org/Graphics/SVG/1.1/DTD/svg11.dtd" >
<svg xmlns="http://www.w3.org/2000/svg" xmlns:xlink="http://www.w3.org/1999/xlink" version="1.1">
<metadata></metadata>
<defs>
<font id="bonvenocflight" horiz-adv-x="1421" >
<font-face units-per-em="2048" ascent="1638" descent="-410" />
<missing-glyph horiz-adv-x="819" />
<glyph horiz-adv-x="0" />
<glyph horiz-adv-x="682" />
<glyph unicode=" "  horiz-adv-x="819" />
<glyph unicode="&#x09;" horiz-adv-x="819" />
<glyph unicode="&#xa0;" horiz-adv-x="819" />
<glyph unicode="!" horiz-adv-x="688" d="M246 90q0 40 29 69t69 29t69 -29t29 -69t-29 -69t-69 -29t-69 29t-29 69zM291 1491h110l-16 -1151h-78z" />
<glyph unicode="&#x22;" horiz-adv-x="657" d="M102 1491h138l-21 -418h-96zM418 1491h137l-20 -418h-97z" />
<glyph unicode="#" horiz-adv-x="1241" d="M102 350v103h285l39 219h-266v102h282l50 281l102 -19l-47 -262h223l49 281l101 -19l-46 -262h267v-102h-285l-39 -219h266v-103h-284l-49 -280l-101 18l45 262h-221l-49 -280l-102 18l47 262h-267zM489 453h224l39 219h-224z" />
<glyph unicode="$" horiz-adv-x="933" d="M164 340l102 4q10 -111 64.5 -157t130.5 -46q50 0 91.5 19.5t65.5 49.5t37 64t13 66q0 114 -224 164q-69 15 -120 39.5t-77.5 49t-42.5 53.5t-20 48.5t-4 38.5q0 65 20.5 118.5t54 87.5t72 54.5t79.5 28.5v256h102v-252q111 -15 178 -94.5t72 -190.5l-103 -4 q-1 32 -12 63.5t-32.5 60.5t-59.5 47t-88 18q-74 0 -127 -52t-53 -139q0 -42 45.5 -77t136.5 -54q83 -18 143 -47t90.5 -57t47.5 -62.5t20.5 -55t3.5 -42.5q0 -64 -27 -125.5t-89 -111t-146 -60.5v-256h-102v256q-32 5 -61.5 16.5t-61 34t-55 54.5t-41.5 81.5t-23 110.5z " />
<glyph unicode="%" horiz-adv-x="1185" d="M123 872q0 105 63.5 162.5t139.5 57.5q105 0 162 -63.5t57 -139.5q0 -55 -19 -98.5t-49.5 -69t-65 -38.5t-69.5 -13q-105 0 -162 63t-57 139zM225 874q0 -38 29.5 -70t85.5 -32q38 0 70 29t32 84q0 39 -28.5 71.5t-83.5 32.5q-39 0 -72 -30t-33 -85zM297 23l500 1073 l94 -43l-502 -1076zM641 186q0 105 63.5 162.5t139.5 57.5q105 0 162 -63.5t57 -139.5q0 -105 -63.5 -162t-139.5 -57q-105 0 -162 63t-57 139zM743 188q0 -38 29.5 -70t85.5 -32q38 0 70.5 29t32.5 84q0 39 -29 71.5t-84 32.5q-40 0 -72.5 -29.5t-32.5 -85.5z" />
<glyph unicode="&#x26;" horiz-adv-x="1431" d="M164 446q0 156 76 270t200 171q-70 47 -109.5 122t-39.5 156t29.5 149t77.5 111.5t108.5 68t124.5 24.5q106 0 187.5 -50.5t122 -126.5t40.5 -161h-102q0 95 -68 165t-180 70q-94 0 -166 -68.5t-72 -179.5q0 -93 67.5 -165t176.5 -72v-103q-151 0 -261 -106.5 t-110 -271.5q0 -94 44.5 -177.5t133 -138.5t201.5 -55q94 0 177.5 44.5t138.5 133.5t55 203v368h-103v103h103v102h102v-102h273v-103h-273v-368q0 -89 -27 -167.5t-73 -135.5t-106 -98.5t-128 -62t-137 -20.5q-89 0 -167 27t-135 73t-98.5 106t-62 128t-20.5 137z" />
<glyph unicode="'" horiz-adv-x="342" d="M102 1491h138l-21 -418h-96z" />
<glyph unicode="(" horiz-adv-x="759" d="M184 604q0 316 117 592.5t326 484.5l71 -71q-194 -194 -302.5 -452.5t-108.5 -553.5q0 -282 106.5 -538t300.5 -451l-73 -72q-207 210 -322 485t-115 576z" />
<glyph unicode=")" horiz-adv-x="759" d="M61 1610l72 71q208 -208 325 -485t117 -592q0 -301 -115 -576.5t-323 -484.5l-71 72q193 196 300 452t107 537q0 295 -109 553.5t-303 452.5z" />
<glyph unicode="*" horiz-adv-x="1013" d="M164 1018l280 143l-280 144l45 77l266 -165l-10 313h90l-16 -313l268 165l43 -79l-281 -142l281 -143l-43 -78l-268 166l16 -313h-90l10 311l-266 -166z" />
<glyph unicode="+" horiz-adv-x="1224" d="M102 459v102h459v459h103v-459h458v-102h-458v-459h-103v459h-459z" />
<glyph unicode="," horiz-adv-x="497" d="M123 -139l131 428l123 -41l-168 -418z" />
<glyph unicode="-" horiz-adv-x="727" d="M61 575l588 105l17 -100l-586 -105z" />
<glyph unicode="." horiz-adv-x="606" d="M205 90q0 40 29 69t69 29t69 -29t29 -69t-29 -69t-69 -29t-69 29t-29 69z" />
<glyph unicode="/" horiz-adv-x="919" d="M123 -266l700 1925l97 -35l-701 -1925z" />
<glyph unicode="0" horiz-adv-x="1382" d="M215 530q0 108 27.5 201.5t74.5 160.5t107.5 115t127.5 71.5t134 23.5q140 0 251.5 -79.5t170.5 -206.5t59 -273q0 -108 -27.5 -201.5t-74.5 -160.5t-107.5 -115t-127.5 -71.5t-134 -23.5q-140 0 -251.5 79.5t-170.5 206.5t-59 273zM317 530q0 -119 46 -222.5 t133.5 -168.5t197.5 -65q152 0 261.5 132.5t109.5 336.5q0 119 -46.5 222.5t-134.5 168.5t-198 65q-151 0 -260 -132.5t-109 -336.5z" />
<glyph unicode="1" horiz-adv-x="593" d="M246 0v1073h102v-1073h-102z" />
<glyph unicode="2" horiz-adv-x="915" d="M102 999q46 50 110 76.5t130 26.5q80 0 146.5 -29t109 -77t65.5 -106.5t23 -119.5q0 -105 -47 -182l-274 -486h450v-102h-625l359 639q35 58 35 129q0 89 -65 160t-175 71q-101 0 -168 -73z" />
<glyph unicode="3" horiz-adv-x="974" d="M41 -367l51 88q106 -61 240 -61q120 0 224 57.5t169.5 166.5t65.5 245q0 152 -90.5 275t-241.5 167q47 32 76.5 84t29.5 109q0 89 -65.5 160t-175.5 71q-45 0 -90 -19t-78 -54l-74 71q102 105 240 105q103 0 184.5 -50t121.5 -123t40 -151q0 -83 -41 -166 q124 -76 195 -204t71 -273q0 -125 -47 -234t-124.5 -182t-179 -115t-210.5 -42q-160 0 -291 75z" />
<glyph unicode="4" horiz-adv-x="1198" d="M0 0l946 1128v-1026h150v-102h-150v-319h-102v319h-844zM219 102h625v746z" />
<glyph unicode="5" horiz-adv-x="1224" d="M205 457l53 616h705v-102h-611l-28 -344q31 31 69.5 46t62.5 17t72 2q166 0 299.5 -80t204 -207.5t70.5 -273.5q0 -125 -47 -234t-124.5 -182t-179 -115t-210.5 -42q-160 0 -291 75l51 88q106 -61 238 -61q90 0 173 34.5t147 94.5t102 149t38 191q0 121 -57.5 225.5 t-166.5 170t-245 65.5q-189 0 -325 -133z" />
<glyph unicode="6" horiz-adv-x="1169" d="M123 446q0 140 65 250l480 832l90 -51l-336 -580q91 33 172 33q89 0 167 -27t135 -73t98.5 -106t62 -128t20.5 -137q0 -110 -41 -203.5t-108.5 -153.5t-151 -93.5t-170.5 -33.5q-89 0 -167 27t-135 73t-98.5 106t-62 128t-20.5 137zM225 449q0 -94 44.5 -177.5 t133 -138.5t201.5 -55q94 0 177.5 44.5t138.5 133t55 201.5q0 94 -44.5 177.5t-133 138t-201.5 54.5q-94 0 -177.5 -44t-138.5 -132.5t-55 -201.5z" />
<glyph unicode="7" horiz-adv-x="1048" d="M61 971v102h988l-877 -1517l-90 51l788 1364h-809z" />
<glyph unicode="8" horiz-adv-x="1241" d="M143 446q0 89 26.5 166t66 126t86 84.5t85.5 50.5t66 16q-10 2 -29.5 10t-50 29.5t-56.5 50.5t-44.5 78.5t-18.5 107.5q0 107 52.5 190t130.5 124t164 41q80 0 146.5 -30t109 -79t65.5 -109.5t23 -123.5q0 -74 -19.5 -119.5t-60.5 -95.5q-14 -17 -56.5 -43t-60.5 -31 q42 -2 113.5 -40.5t124.5 -111.5q92 -128 92 -278q0 -110 -41 -203.5t-108.5 -153.5t-151 -93.5t-170.5 -33.5q-110 0 -203.5 41t-153.5 108.5t-93.5 151t-33.5 170.5zM246 449q0 -94 44.5 -177.5t133 -138.5t201.5 -55q94 0 177.5 44.5t138 133t54.5 201.5q0 69 -26 135 t-72.5 118.5t-118 84.5t-155.5 32q-160 0 -268.5 -108t-108.5 -270zM377 1167q0 -43 16 -84t45.5 -75.5t77 -56t105.5 -21.5q95 0 168 68t73 178q0 95 -65.5 167t-175.5 72q-96 0 -170 -68.5t-74 -179.5z" />
<glyph unicode="9" horiz-adv-x="1169" d="M92 623q0 88 27 166t73 135t106 98.5t128 62.5t137 21q110 0 203.5 -41.5t153.5 -109t93.5 -151t33.5 -169.5q0 -138 -64 -250l-481 -831l-88 49l336 581q-79 -32 -175 -32q-89 0 -167 27t-135 73t-98.5 106t-62 128t-20.5 137zM195 623q0 -93 44 -176t132.5 -138 t201.5 -55q94 0 177.5 44t138.5 132.5t55 202.5q0 94 -44.5 177.5t-133 138.5t-201.5 55q-94 0 -177.5 -44.5t-138 -133.5t-54.5 -203z" />
<glyph unicode=":" horiz-adv-x="647" d="M225 90q0 40 29.5 69t69.5 29t69 -29t29 -69t-29 -69t-69 -29t-69.5 29t-29.5 69zM225 985q0 40 29.5 69t69.5 29t69 -29t29 -69q0 -41 -29 -69.5t-69 -28.5t-69.5 28.5t-29.5 69.5z" />
<glyph unicode=";" horiz-adv-x="708" d="M225 -139l131 428l123 -41l-168 -418zM287 985q0 40 29 69t69 29q41 0 69.5 -29t28.5 -69q0 -41 -28.5 -69.5t-69.5 -28.5q-40 0 -69 28.5t-29 69.5z" />
<glyph unicode="&#x3c;" horiz-adv-x="1204" d="M61 512l947 547l51 -88l-793 -459l795 -459l-51 -88z" />
<glyph unicode="=" horiz-adv-x="1429" d="M205 307v103h1020v-103h-1020zM205 610v103h1020v-103h-1020z" />
<glyph unicode="&#x3e;" horiz-adv-x="1204" d="M143 971l52 88l948 -545l-946 -549l-52 88l793 461z" />
<glyph unicode="?" horiz-adv-x="958" d="M102 1399q59 61 139 93t158 32q86 0 159.5 -25.5t123.5 -68t85.5 -97t52 -111.5t16.5 -114q0 -195 -123 -315q-98 -98 -246 -119l-12 -330h-78l-17 436l111 -2q104 22 170 88q92 92 92 242q0 61 -25 122.5t-87 115.5t-150 69q-35 6 -72 6q-25 0 -39 -2q-106 -14 -186 -94 zM315 90q0 40 29.5 69t69.5 29q41 0 69.5 -29t28.5 -69t-28.5 -69t-69.5 -29q-40 0 -69.5 29t-29.5 69z" />
<glyph unicode="@" horiz-adv-x="1634" d="M113 670q0 199 95 362.5t257.5 255.5t355.5 92q192 0 354.5 -90.5t259.5 -255t97 -366.5q0 -114 -54 -215t-143.5 -160.5t-189.5 -59.5q-34 0 -59 8.5t-38 20.5t-20.5 31t-9.5 34.5t-2 37.5v32q-87 -129 -250 -129q-174 0 -287.5 118t-113.5 276q0 117 56 210t145.5 142 t191.5 49q174 0 258 -125v100h71q-4 -188 -4 -395v-182q0 -74 4.5 -104.5t16.5 -41t41 -10.5q115 0 215 106t100 257q0 182 -87 330t-233.5 229.5t-320.5 81.5q-173 0 -318.5 -82.5t-231 -229.5t-85.5 -327q0 -174 83 -320t230.5 -231.5t327.5 -85.5q218 0 385 129l43 -58 q-196 -143 -428 -143q-200 0 -364 95.5t-256 257.5t-92 356zM436 662q0 -130 93 -226t237 -96q72 0 138 32t112 89v409q-96 121 -258 121q-130 0 -226 -92.5t-96 -236.5z" />
<glyph unicode="A" horiz-adv-x="1619" d="M102 23l709 1515l707 -1515l-101 -48l-258 553h-698l-258 -553zM512 639h596l-299 639z" />
<glyph unicode="B" horiz-adv-x="1286" d="M246 0v1491h372q117 0 207.5 -56t135.5 -140t45 -177q0 -139 -74 -219q-19 -19 -63.5 -45.5t-67.5 -30.5q21 -2 54.5 -18t75 -49t77 -77t60 -110t24.5 -139q0 -129 -61.5 -229t-155 -150.5t-199.5 -50.5h-430zM356 111h318q121 0 214 87.5t93 229.5q0 74 -32.5 142.5 t-98.5 115.5t-150 47h-344v-622zM356 844h318q92 16 156.5 89.5t64.5 182.5q0 104 -77.5 184t-199.5 80h-262v-536z" />
<glyph unicode="C" horiz-adv-x="1650" d="M113 741q0 170 64.5 319.5t171.5 252t248.5 161t293.5 58.5q167 0 312.5 -61.5t252.5 -170.5l-78 -77q-195 198 -487 198q-177 0 -330 -87t-245.5 -244t-92.5 -347q0 -178 87 -331t243.5 -245.5t347.5 -92.5q131 0 253.5 50t217.5 142l78 -78q-109 -108 -251.5 -166.5 t-295.5 -58.5q-170 0 -319.5 64.5t-251.5 171.5t-160.5 248.5t-58.5 293.5z" />
<glyph unicode="D" horiz-adv-x="1480" d="M246 0v1491h372q153 0 291.5 -58.5t239 -157.5t160 -237t59.5 -290t-59.5 -291t-160 -239t-239 -159t-291.5 -59h-372zM356 111h262q130 0 248 50.5t203 135.5t135.5 203t50.5 248q0 173 -85.5 318.5t-232 229.5t-319.5 84h-262v-1269z" />
<glyph unicode="E" horiz-adv-x="1204" d="M246 0v1491h676v-111h-566v-536h451v-111h-451v-622h643v-111h-753z" />
<glyph unicode="F" horiz-adv-x="1122" d="M246 0v1491h753v-111h-643v-536h451v-111h-451v-733h-110z" />
<glyph unicode="G" horiz-adv-x="1650" d="M113 741q0 170 64.5 319.5t171.5 252t248.5 161t293.5 58.5q167 0 312.5 -61.5t252.5 -170.5l-78 -77q-195 198 -487 198q-177 0 -330 -87t-245.5 -244t-92.5 -347q0 -178 87 -331t243.5 -245.5t347.5 -92.5q119 0 233 43t205 121v290h-438v111h549v-451 q-109 -108 -251.5 -166.5t-295.5 -58.5q-170 0 -319.5 64.5t-251.5 171.5t-160.5 248.5t-58.5 293.5z" />
<glyph unicode="H" horiz-adv-x="1503" d="M246 0v1491h110v-647h791v647h110v-1491h-110v733h-791v-733h-110z" />
<glyph unicode="I" horiz-adv-x="602" d="M246 0v1491h110v-1491h-110z" />
<glyph unicode="J" horiz-adv-x="1198" d="M0 223l109 19q25 -123 122.5 -210t245.5 -87q66 0 130.5 25t117 70.5t85 117t32.5 157.5v1176h110v-553q0 -215 0.5 -351t1 -189.5t0.5 -67.5q0 -113 -41.5 -208.5t-109 -157t-152 -96t-172.5 -34.5q-98 0 -182.5 32t-143.5 87t-98 124t-55 146z" />
<glyph unicode="K" horiz-adv-x="1415" d="M246 0v1491h110v-1491h-110zM389 791l729 729l78 -78l-651 -651l747 -748l-78 -78z" />
<glyph unicode="L" horiz-adv-x="1214" d="M246 0v1491h110v-1380h787v-111h-897z" />
<glyph unicode="M" horiz-adv-x="1951" d="M246 0v1540l731 -870l729 870v-1540h-111v1237l-618 -739l-621 739v-1237h-110z" />
<glyph unicode="N" horiz-adv-x="1681" d="M246 0v1540l1079 -1286v1237h111v-1540l-1080 1286v-1237h-110z" />
<glyph unicode="O" horiz-adv-x="1794" d="M113 741q0 170 64.5 319.5t171.5 252t248.5 161t293.5 58.5q170 0 319.5 -64.5t251.5 -171.5t160.5 -248.5t58.5 -293.5q0 -170 -64.5 -319.5t-171.5 -252t-248.5 -161t-293.5 -58.5q-170 0 -319.5 64.5t-251.5 171.5t-160.5 248.5t-58.5 293.5zM223 743 q0 -128 49.5 -248.5t136 -214t215.5 -150t277 -56.5q129 0 250 49.5t214 136t149.5 214t56.5 274.5q0 183 -87.5 337t-244.5 245t-348 91q-128 0 -248.5 -49.5t-213.5 -136t-149.5 -215.5t-56.5 -277z" />
<glyph unicode="P" horiz-adv-x="1300" d="M246 0v1491h456q88 0 165 -27t133 -73.5t97 -107.5t61 -129t20 -138q0 -143 -67 -256t-173.5 -172.5t-228.5 -59.5h-353v-528h-110zM356 639h351q90 0 170.5 43t135 131t54.5 203q0 66 -25 130t-69.5 116.5t-115.5 85t-155 32.5h-346v-741z" />
<glyph unicode="Q" horiz-adv-x="1845" d="M113 741q0 171 64.5 320.5t171.5 251.5t248.5 160.5t293.5 58.5q170 0 319.5 -64.5t251.5 -171.5t160.5 -248.5t58.5 -293.5q0 -157 -57.5 -304t-173.5 -262l223 -223l-78 -78l-229 230q-209 -154 -463 -154q-170 0 -319.5 64.5t-251.5 171.5t-160.5 248.5t-58.5 293.5z M223 743q0 -128 49.5 -248.5t136 -214t215.5 -150t277 -56.5q102 0 200.5 31t183 90.5t149 140.5t101 187.5t36.5 224.5q0 183 -87.5 337t-244.5 245t-348 91q-128 0 -248.5 -49.5t-213.5 -136t-149.5 -215.5t-56.5 -277z" />
<glyph unicode="R" horiz-adv-x="1351" d="M246 0v1491h456q88 0 165 -27t133 -73.5t97 -107.5t61 -129t20 -138q0 -192 -121.5 -330.5t-286.5 -138.5q-34 0 -75.5 6t-53.5 10l520 -522l-78 -78l-675 676h299q90 0 170.5 43t135 131t54.5 203q0 66 -25 130t-69.5 116.5t-115.5 85t-155 32.5h-346v-1380h-110z" />
<glyph unicode="S" horiz-adv-x="1214" d="M113 426l110 6q7 -88 34.5 -155.5t63.5 -106.5t83 -63.5t88.5 -32.5t85.5 -8q85 0 157 32t118 83.5t71.5 114t25.5 124.5q0 54 -15 92.5t-57.5 77t-123 72t-205.5 65.5q-371 100 -371 383q0 85 26 155.5t68 116t96 77.5t108 45.5t106 13.5q183 0 297 -117.5t122 -290.5 l-110 -6q-6 130 -89.5 216.5t-217.5 86.5q-52 0 -102.5 -17.5t-94.5 -51.5t-71 -92.5t-27 -131.5q0 -61 22.5 -108.5t64.5 -79.5t90.5 -53t111.5 -37q146 -38 242.5 -82.5t148.5 -98t72 -108.5t20 -127q0 -83 -33 -164.5t-93 -149t-154.5 -109.5t-205.5 -42 q-53 0 -105.5 10.5t-115 42t-111 81.5t-85 137t-45.5 200z" />
<glyph unicode="T" horiz-adv-x="1208" d="M41 1380v111h1126v-111h-503v-1380h-111v1380h-512z" />
<glyph unicode="U" horiz-adv-x="1617" d="M246 524v967h110v-963q0 -84 32 -164t90 -143.5t146 -102t191 -38.5q83 0 163 32.5t143.5 90.5t102 145.5t38.5 190.5v952h110v-952q0 -128 -48 -237t-127 -180.5t-178.5 -112t-203.5 -40.5q-128 0 -237 48t-180.5 126.5t-111.5 177.5t-40 203z" />
<glyph unicode="V" horiz-adv-x="1454" d="M20 1464l101 47l606 -1302l608 1302l101 -47l-709 -1515z" />
<glyph unicode="W" horiz-adv-x="2232" d="M20 1464l101 47l606 -1302l330 704l-258 551l100 47l606 -1302l609 1302l100 -47l-709 -1515l-389 833l-389 -833z" />
<glyph unicode="X" horiz-adv-x="1572" d="M82 35l633 753l-561 670l84 70l555 -660l555 662l84 -72l-568 -676l627 -747l-84 -72l-621 739l-618 -737z" />
<glyph unicode="Y" horiz-adv-x="1218" d="M82 1464l100 47l426 -917l428 917l101 -47l-473 -1013v-451h-111v453z" />
<glyph unicode="Z" horiz-adv-x="1515" d="M41 0l1159 1380h-1003v111h1239l-1157 -1380h1196v-111h-1434z" />
<glyph unicode="[" horiz-adv-x="743" d="M266 -410v2048h477v-102h-374v-1843h374v-103h-477z" />
<glyph unicode="\" horiz-adv-x="919" d="M0 1624l96 35l701 -1925l-97 -35z" />
<glyph unicode="]" horiz-adv-x="741" d="M0 -307h373v1843h-373v102h475v-2048h-475v103z" />
<glyph unicode="^" horiz-adv-x="958" d="M143 961l336 722l336 -722l-92 -43l-244 524l-243 -524z" />
<glyph unicode="_" horiz-adv-x="1024" d="M0 -154h1024v-102h-1024v102z" />
<glyph unicode="`" horiz-adv-x="602" d="M102 1491l91 92l307 -328l-64 -65z" />
<glyph unicode="a" d="M143 535q0 125 47 234t125 182t179.5 115t210.5 42q244 0 368 -178v143h103v-1073h-103v156q-124 -183 -356 -183q-125 0 -234 47t-182.5 125t-115.5 179.5t-42 210.5zM246 537q0 -121 57.5 -225.5t166.5 -170t245 -65.5q105 0 199.5 45.5t158.5 126.5v586 q-64 80 -158.5 126t-207.5 46q-121 0 -225.5 -57.5t-170 -166.5t-65.5 -245z" />
<glyph unicode="b" d="M246 0v1638h102v-708q124 178 369 178q109 0 210.5 -42t179 -115t124.5 -182t47 -234q0 -109 -42 -210.5t-115 -179.5t-182 -125t-234 -47q-233 0 -357 183v-156h-102zM348 248q64 -81 159 -126.5t200 -45.5q136 0 245 65.5t166.5 170t57.5 225.5q0 136 -65.5 245 t-170 166.5t-225.5 57.5q-113 0 -208 -46.5t-159 -125.5v-586z" />
<glyph unicode="c" horiz-adv-x="1245" d="M143 535q0 125 47 234t125 182t179.5 115t210.5 42q126 0 232.5 -46.5t184.5 -127.5l-73 -74q-136 146 -342 146q-121 0 -225.5 -57.5t-170 -166.5t-65.5 -245q0 -121 57.5 -225.5t166.5 -170t245 -65.5q95 0 182 37.5t152 105.5l73 -72q-78 -83 -184.5 -128.5 t-220.5 -45.5q-125 0 -234 47t-182.5 125t-115.5 179.5t-42 210.5z" />
<glyph unicode="d" d="M143 535q0 125 47 234t125 182t179.5 115t210.5 42q244 0 368 -178v708h103v-1638h-103v156q-124 -183 -356 -183q-125 0 -234 47t-182.5 125t-115.5 179.5t-42 210.5zM246 537q0 -121 57.5 -225.5t166.5 -170t245 -65.5q104 0 198 45t160 127v586q-64 80 -158.5 126 t-207.5 46q-121 0 -225.5 -57.5t-170 -166.5t-65.5 -245z" />
<glyph unicode="e" horiz-adv-x="1345" d="M143 535q0 125 47 234t125.5 182t180.5 115t211 42q199 0 345.5 -111t200.5 -284l-1007 -176q0 -90 34.5 -173.5t94.5 -147t149.5 -102t192.5 -38.5q125 0 233 63l51 -88q-132 -78 -284 -78q-125 0 -234 47t-182.5 125t-115.5 179.5t-42 210.5zM258 641l848 150 q-62 99 -165.5 157t-233.5 58q-159 0 -286.5 -100.5t-162.5 -264.5z" />
<glyph unicode="f" horiz-adv-x="851" d="M143 971v102h103q1 124 48.5 231t125 179.5t178.5 113.5t209 41h147v-102h-147q-119 0 -222.5 -56.5t-169 -164t-67.5 -242.5h483v-102h-483v-971h-102v971h-103z" />
<glyph unicode="g" horiz-adv-x="1423" d="M143 545q0 146 70.5 274t204 208.5t299.5 80.5q232 0 358 -184v114h103v-780v-102q-3 -165 -83.5 -296t-207.5 -200.5t-271 -69.5h-147v103h147q119 0 222.5 56.5t169 164t67.5 242.5q-126 -185 -368 -185q-109 0 -211 42t-180.5 115.5t-125.5 182.5t-47 234zM246 545 q0 -137 66 -246.5t170.5 -167t224.5 -57.5q114 0 208 46t160 126v588q-66 81 -160.5 126.5t-197.5 45.5q-137 0 -246.5 -66t-167 -170.5t-57.5 -224.5z" />
<glyph unicode="h" horiz-adv-x="1345" d="M246 0v1638h102v-708q128 178 369 178q116 0 205.5 -55.5t133.5 -139.5t44 -178v-735h-103v733q0 108 -77.5 190.5t-202.5 82.5q-114 0 -208.5 -46t-160.5 -126v-834h-102z" />
<glyph unicode="i" horiz-adv-x="688" d="M246 1348q0 40 29 69t69 29t69 -29t29 -69t-29 -69.5t-69 -29.5t-69 29.5t-29 69.5zM295 0v1073h102v-1073h-102z" />
<glyph unicode="j" horiz-adv-x="774" d="M246 -336q135 135 135 336v1073h102v-1071v-2q0 -122 -44 -227t-122 -181zM332 1348q0 40 29 69t69 29q41 0 69.5 -29t28.5 -69t-28.5 -69.5t-69.5 -29.5q-40 0 -69 29.5t-29 69.5z" />
<glyph unicode="k" horiz-adv-x="1167" d="M246 0v1638h102v-1638h-102zM379 541l571 571l72 -72l-500 -499l502 -502l-72 -72z" />
<glyph unicode="l" horiz-adv-x="593" d="M246 0v1638h102v-1638h-102z" />
<glyph unicode="m" horiz-adv-x="2093" d="M246 0v1073h102v-143q124 178 369 178q120 0 209.5 -57.5t134.5 -149.5l35 49q110 158 368 158q116 0 205.5 -55.5t133.5 -139.5t44 -178v-735h-102v733q0 108 -77.5 190.5t-203.5 82.5q-114 0 -208 -46t-160 -126v-54q4 -28 4 -45v-735h-103v733q0 108 -78 190.5 t-204 82.5q-113 0 -208 -46.5t-159 -125.5v-834h-102z" />
<glyph unicode="n" horiz-adv-x="1447" d="M246 0v1073h102v-272q14 65 87 136.5t180 121t206 49.5q115 0 204 -55.5t133 -139.5t44 -178v-735h-102v733q0 108 -77.5 190.5t-203.5 82.5q-103 0 -192.5 -38.5t-149.5 -102t-94.5 -147t-34.5 -173.5v-545h-102z" />
<glyph unicode="o" d="M143 535q0 125 47 234t125 182t179.5 115t210.5 42q125 0 234 -47t182 -124.5t115 -179t42 -210.5q0 -166 -80 -299.5t-207.5 -204t-273.5 -70.5q-125 0 -234 47t-182.5 125t-115.5 179.5t-42 210.5zM246 537q0 -121 57.5 -225.5t166.5 -170t245 -65.5q121 0 225.5 57.5 t170 166.5t65.5 245q0 121 -57.5 225.5t-166.5 170t-245 65.5q-121 0 -225.5 -57.5t-170 -166.5t-65.5 -245z" />
<glyph unicode="p" d="M246 -410v1489h102v-155q123 184 357 184q125 0 234 -47t182 -125.5t115 -180t42 -210.5q0 -166 -80 -299.5t-207.5 -204t-273.5 -70.5q-246 0 -369 181v-562h-102zM348 246q64 -79 159 -125.5t208 -46.5q90 0 173.5 34.5t147 94.5t102 149.5t38.5 192.5 q0 120 -57.5 224.5t-166.5 170.5t-245 66q-105 0 -200 -45.5t-159 -126.5v-588z" />
<glyph unicode="q" d="M143 545q0 146 70.5 274t204 208.5t299.5 80.5q233 0 356 -184v155h103v-1489h-103v562q-123 -181 -368 -181q-109 0 -210.5 42t-179.5 115.5t-125 182.5t-47 234zM246 545q0 -103 38.5 -192.5t102 -149.5t147 -94.5t173.5 -34.5q113 0 207.5 46t158.5 126v588 q-64 81 -158.5 126.5t-199.5 45.5q-136 0 -245 -66t-166.5 -170.5t-57.5 -224.5z" />
<glyph unicode="r" horiz-adv-x="903" d="M246 0v1073h102v-272q14 65 87 136.5t180 121t206 49.5v-102q-103 0 -192.5 -38.5t-150.5 -102t-95.5 -147t-34.5 -173.5v-545h-102z" />
<glyph unicode="s" horiz-adv-x="1093" d="M143 78q231 15 398.5 95.5t167.5 176.5q0 31 -20.5 61t-53 55.5t-72 51.5t-79.5 55t-72.5 60.5t-53 74t-20.5 89.5v4q0 23 4 37q12 46 41.5 85t67 65t85.5 47.5t92 33.5t91 21t79 12t59 5.5t28 2.5l6 -102q-16 0 -59 -4.5t-112.5 -19t-130 -36t-105 -61.5t-44.5 -90 q0 -38 27.5 -73.5t68.5 -62.5t89.5 -61t89.5 -67t68.5 -82t27.5 -105q0 -18 -10 -51q-17 -56 -60 -103.5t-94.5 -79t-119.5 -57t-123 -39.5t-116 -24t-88 -12.5t-50 -4.5z" />
<glyph unicode="t" horiz-adv-x="954" d="M143 971v102h103v303h102v-303h483v-102h-483v-619q0 -107 78 -189.5t203 -82.5q74 0 141 39l51 -88q-88 -54 -190 -54q-115 0 -205 55.5t-135 139.5t-45 178v621h-103z" />
<glyph unicode="u" horiz-adv-x="1447" d="M246 346v727h102v-725q0 -108 77.5 -190t203.5 -82q103 0 192.5 38.5t149.5 102t94.5 147t34.5 173.5v536h102v-1073h-102v281q-14 -65 -87 -137t-180 -121.5t-206 -49.5q-115 0 -204 55.5t-133 139.5t-44 178z" />
<glyph unicode="v" horiz-adv-x="1218" d="M92 1065l92 43l426 -911l426 911l92 -43l-518 -1110z" />
<glyph unicode="w" horiz-adv-x="1812" d="M92 1065l92 43l426 -911l240 512l-166 354l92 43l426 -913l426 913l92 -45l-518 -1110l-297 637l-295 -633z" />
<glyph unicode="x" horiz-adv-x="1245" d="M102 20l455 541l-405 486l77 65l400 -475l399 475l78 -65l-412 -490l451 -537l-78 -65l-444 528l-443 -528z" />
<glyph unicode="y" horiz-adv-x="1220" d="M92 1065l92 43l426 -911l426 911l92 -43l-702 -1505l-92 45l219 471z" />
<glyph unicode="z" horiz-adv-x="1277" d="M102 0l816 971h-725v102h944l-815 -971h854v-102h-1074z" />
<glyph unicode="{" horiz-adv-x="921" d="M246 563v103q75 0 137.5 54.5t62.5 153.5v510q0 120 73.5 187t166.5 67h236v-102h-232q-53 0 -97 -39t-44 -111v-509q0 -175 -135 -263q135 -88 135 -262v-510q0 -72 44 -110.5t97 -38.5h232v-103h-236q-93 0 -166.5 67t-73.5 187v510q0 99 -62.5 154t-137.5 55z" />
<glyph unicode="|" horiz-adv-x="593" d="M246 -410v2048h102v-2048h-102z" />
<glyph unicode="}" horiz-adv-x="921" d="M0 -307h231q53 0 97.5 38.5t44.5 110.5v510q0 174 135 262q-135 88 -135 263v509q0 72 -44.5 111t-97.5 39h-231v102h236q59 0 112 -26.5t90 -86t37 -141.5v-510q0 -99 62.5 -153.5t138.5 -54.5v-103q-75 0 -138 -55t-63 -154v-510q0 -82 -37 -141.5t-90 -86t-112 -26.5 h-236v103z" />
<glyph unicode="~" horiz-adv-x="1206" d="M61 553q15 12 45.5 37.5t43 35t38 26t44 23t46 12t58.5 5.5q35 0 64 -5t48 -10t46 -21.5t39.5 -25.5t47 -36.5t52.5 -40.5q16 -12 49.5 -38t47 -35t37.5 -23t45.5 -18.5t47.5 -4.5q24 0 41 3t29 5.5t30 15t28.5 20.5t41 33t51.5 42l64 -80q-16 -13 -55 -45.5t-48 -38.5 t-36.5 -24t-43.5 -21t-43 -7.5t-61 -4.5q-30 0 -57.5 6t-44 10.5t-46.5 23t-39 25t-48 36.5t-50 38q-20 15 -57.5 44t-48 36.5t-35 20t-45.5 15.5t-51 3q-21 0 -37.5 -3t-28 -7t-30 -16.5t-29 -20.5t-39 -31.5t-47.5 -38.5z" />
<glyph unicode="&#xa2;" horiz-adv-x="1120" d="M205 539q0 158 103 278.5t274 138.5v250h102v-250q140 -17 252 -129l-74 -69q-98 98 -231 98q-145 0 -234.5 -93.5t-89.5 -225.5q0 -141 93.5 -231.5t226.5 -90.5q139 0 235 100l74 -71q-108 -112 -252 -127v-250h-102v248q-160 15 -268.5 132t-108.5 292z" />
<glyph unicode="&#xa3;" horiz-adv-x="1187" d="M246 0v102h98q41 0 75.5 7.5t65 25t47.5 50.5t17 79q0 21 -2 38t-10 35.5t-12 29t-20.5 32.5t-23 30.5t-31.5 38t-34 40.5h-170v102h84q-39 45 -55.5 85.5t-16.5 105.5q0 54 20.5 107t58.5 97t99 71.5t135 27.5q44 0 88.5 -13.5t94.5 -55t77 -107.5l-88 -51 q-25 68 -73.5 96t-98.5 28q-96 0 -153.5 -62.5t-57.5 -139.5q0 -25 3 -42.5t14.5 -37t19 -29.5t31.5 -37.5t37 -42.5h240v-102h-156q53 -64 77.5 -115t24.5 -123q0 -44 -10 -86q-4 -18 -23 -41q-17 -17 -49 -41h70q129 0 195.5 67.5t66.5 174.5q0 17 -2.5 32.5t-5 24 t-5.5 16.5t-3 9l94 41q25 -70 25 -119q0 -161 -101 -254.5t-264 -93.5h-393z" />
<glyph unicode="&#xa8;" horiz-adv-x="1009" d="M205 1247q0 41 29 70t69 29t69 -29t29 -70q0 -40 -29 -69t-69 -29t-69 29t-29 69zM608 1247q0 41 29.5 70t69.5 29t69 -29t29 -70q0 -40 -29 -69t-69 -29t-69.5 29t-29.5 69z" />
<glyph unicode="&#xab;" horiz-adv-x="872" d="M164 539l215 383l90 -50l-188 -333l188 -332l-90 -51zM385 539l215 383l90 -50l-188 -333l188 -332l-90 -51z" />
<glyph unicode="&#xad;" horiz-adv-x="727" d="M61 575l588 105l17 -100l-586 -105z" />
<glyph unicode="&#xb4;" horiz-adv-x="602" d="M102 1255l308 328l90 -92l-334 -301z" />
<glyph unicode="&#xb8;" horiz-adv-x="614" d="M164 -256h88q0 -34 21.5 -58t62.5 -24q30 0 55 21.5t25 62.5q0 30 -21.5 55t-62.5 25q-47 0 -70 -41l-76 43l82 143l17 29h102l-16 -29l-45 -80q14 11 41 11t49 -11q40 -17 64 -56.5t24 -86.5q0 -71 -46 -122.5t-118 -51.5q-73 0 -124.5 47t-51.5 123z" />
<glyph unicode="&#xbb;" horiz-adv-x="874" d="M184 207l189 332l-189 333l90 50l215 -383l-215 -383zM406 207l188 332l-188 333l90 50l215 -383l-215 -383z" />
<glyph unicode="&#xc0;" horiz-adv-x="1619" d="M102 23l709 1515l707 -1515l-101 -48l-258 553h-698l-258 -553zM475 1921l92 92l307 -327l-63 -66zM512 639h596l-299 639z" />
<glyph unicode="&#xc1;" horiz-adv-x="1619" d="M102 23l709 1515l707 -1515l-101 -48l-258 553h-698l-258 -553zM512 639h596l-299 639zM748 1686l307 327l90 -92l-334 -301z" />
<glyph unicode="&#xc2;" horiz-adv-x="1619" d="M102 23l709 1515l707 -1515l-101 -48l-258 553h-698l-258 -553zM512 639h596l-299 639zM520 1698l291 260l291 -260l-70 -78l-221 201l-223 -201z" />
<glyph unicode="&#xc3;" horiz-adv-x="1619" d="M102 23l709 1515l707 -1515l-101 -48l-258 553h-698l-258 -553zM512 639h596l-299 639zM522 1710q8 14 18 28t32.5 39t54.5 40.5t67 15.5q38 0 75 -17.5t60.5 -38t50 -38t46.5 -17.5q39 0 82 70l90 -49q-19 -28 -25 -36t-25.5 -30.5t-35 -31t-41.5 -17t-56 -8.5 q-34 0 -67.5 17.5t-56 39t-48.5 39t-47 17.5q-44 0 -84 -70z" />
<glyph unicode="&#xc4;" horiz-adv-x="1619" d="M102 23l709 1515l707 -1515l-101 -48l-258 553h-698l-258 -553zM510 1718q0 41 29 70t69 29q41 0 70 -29t29 -70q0 -40 -29 -69t-70 -29q-40 0 -69 29t-29 69zM512 639h596l-299 639zM913 1718q0 41 29.5 70t69.5 29q41 0 69.5 -29t28.5 -70q0 -40 -28.5 -69t-69.5 -29 q-40 0 -69.5 29t-29.5 69z" />
<glyph unicode="&#xc5;" horiz-adv-x="1619" d="M102 23l709 1515l707 -1515l-101 -48l-258 553h-698l-258 -553zM512 639h596l-299 639zM614 1716q0 84 53.5 143.5t137.5 59.5q83 0 143 -53t60 -137t-53.5 -143.5t-137.5 -59.5t-143.5 53t-59.5 137zM717 1718q0 -34 24.5 -62t71.5 -28q34 0 63 25t29 73q0 34 -25 62.5 t-73 28.5q-34 0 -62 -25.5t-28 -73.5z" />
<glyph unicode="&#xc7;" horiz-adv-x="1650" d="M113 741q0 170 64.5 319.5t171.5 252t248.5 161t293.5 58.5q167 0 312.5 -61.5t252.5 -170.5l-78 -77q-195 198 -487 198q-177 0 -330 -87t-245.5 -244t-92.5 -347q0 -178 87 -331t243.5 -245.5t347.5 -92.5q131 0 253.5 50t217.5 142l78 -78q-109 -108 -251.5 -166.5 t-295.5 -58.5q-170 0 -319.5 64.5t-251.5 171.5t-160.5 248.5t-58.5 293.5zM731 -279h88q0 -34 21.5 -57.5t62.5 -23.5q29 0 53.5 21.5t24.5 62.5q0 29 -21.5 53t-62.5 24q-19 0 -38.5 -10t-29.5 -29l-77 43l84 144l16 28h102l-16 -28l-47 -80q13 10 43 10q29 0 49 -10 q39 -17 63.5 -56.5t24.5 -86.5q0 -71 -46.5 -123t-119.5 -52t-123.5 47t-50.5 123z" />
<glyph unicode="&#xc8;" horiz-adv-x="1204" d="M246 0v1491h676v-111h-566v-536h451v-111h-451v-622h643v-111h-753zM250 1915l90 92l307 -328l-63 -65z" />
<glyph unicode="&#xc9;" horiz-adv-x="1204" d="M246 0v1491h676v-111h-566v-536h451v-111h-451v-622h643v-111h-753zM520 1679l307 328l91 -92l-334 -301z" />
<glyph unicode="&#xca;" horiz-adv-x="1204" d="M246 0v1491h676v-111h-566v-536h451v-111h-451v-622h643v-111h-753zM293 1692l291 260l290 -260l-69 -78l-221 201l-224 -201z" />
<glyph unicode="&#xcb;" horiz-adv-x="1204" d="M246 0v1491h676v-111h-566v-536h451v-111h-451v-622h643v-111h-753zM283 1712q0 41 29 69.5t69 28.5q41 0 69.5 -28.5t28.5 -69.5q0 -40 -28.5 -69t-69.5 -29q-40 0 -69 29t-29 69zM686 1712q0 41 29 69.5t69 28.5q41 0 70 -28.5t29 -69.5q0 -40 -29 -69t-70 -29 q-40 0 -69 29t-29 69z" />
<glyph unicode="&#xcc;" horiz-adv-x="602" d="M-33 1915l90 92l308 -328l-64 -65zM246 0v1491h110v-1491h-110z" />
<glyph unicode="&#xcd;" horiz-adv-x="602" d="M238 1679l307 328l90 -92l-334 -301zM246 0v1491h110v-1491h-110z" />
<glyph unicode="&#xce;" horiz-adv-x="602" d="M10 1692l291 260l291 -260l-68 -78l-223 201l-223 -201zM246 0v1491h110v-1491h-110z" />
<glyph unicode="&#xcf;" horiz-adv-x="602" d="M0 1712q0 41 29 69.5t69 28.5q41 0 70 -28.5t29 -69.5q0 -40 -29 -69t-70 -29q-40 0 -69 29t-29 69zM246 0v1491h110v-1491h-110zM406 1712q0 41 28.5 69.5t69.5 28.5q40 0 69 -28.5t29 -69.5q0 -40 -29 -69t-69 -29q-41 0 -69.5 29t-28.5 69z" />
<glyph unicode="&#xd1;" horiz-adv-x="1681" d="M246 0v1540l1079 -1286v1237h111v-1540l-1080 1286v-1237h-110zM557 1712q8 14 18 28t32.5 39t54.5 40.5t67 15.5q38 0 75 -17.5t60.5 -39t50 -39t46.5 -17.5q39 0 81 72l91 -49q-19 -28 -25 -36t-25.5 -30.5t-35 -31t-41.5 -17t-56 -8.5q-34 0 -68 17.5t-56 38t-48 38 t-47 17.5q-46 0 -84 -70z" />
<glyph unicode="&#xd2;" horiz-adv-x="1794" d="M113 741q0 170 64.5 319.5t171.5 252t248.5 161t293.5 58.5q170 0 319.5 -64.5t251.5 -171.5t160.5 -248.5t58.5 -293.5q0 -170 -64.5 -319.5t-171.5 -252t-248.5 -161t-293.5 -58.5q-170 0 -319.5 64.5t-251.5 171.5t-160.5 248.5t-58.5 293.5zM223 743 q0 -128 49.5 -248.5t136 -214t215.5 -150t277 -56.5q129 0 250 49.5t214 136t149.5 214t56.5 274.5q0 183 -87.5 337t-244.5 245t-348 91q-128 0 -248.5 -49.5t-213.5 -136t-149.5 -215.5t-56.5 -277zM557 1915l90 92l307 -328l-63 -65z" />
<glyph unicode="&#xd3;" horiz-adv-x="1794" d="M113 741q0 170 64.5 319.5t171.5 252t248.5 161t293.5 58.5q170 0 319.5 -64.5t251.5 -171.5t160.5 -248.5t58.5 -293.5q0 -170 -64.5 -319.5t-171.5 -252t-248.5 -161t-293.5 -58.5q-170 0 -319.5 64.5t-251.5 171.5t-160.5 248.5t-58.5 293.5zM223 743 q0 -128 49.5 -248.5t136 -214t215.5 -150t277 -56.5q129 0 250 49.5t214 136t149.5 214t56.5 274.5q0 183 -87.5 337t-244.5 245t-348 91q-128 0 -248.5 -49.5t-213.5 -136t-149.5 -215.5t-56.5 -277zM827 1679l308 328l90 -92l-334 -301z" />
<glyph unicode="&#xd4;" horiz-adv-x="1794" d="M113 741q0 170 64.5 319.5t171.5 252t248.5 161t293.5 58.5q170 0 319.5 -64.5t251.5 -171.5t160.5 -248.5t58.5 -293.5q0 -170 -64.5 -319.5t-171.5 -252t-248.5 -161t-293.5 -58.5q-170 0 -319.5 64.5t-251.5 171.5t-160.5 248.5t-58.5 293.5zM223 743 q0 -128 49.5 -248.5t136 -214t215.5 -150t277 -56.5q129 0 250 49.5t214 136t149.5 214t56.5 274.5q0 183 -87.5 337t-244.5 245t-348 91q-128 0 -248.5 -49.5t-213.5 -136t-149.5 -215.5t-56.5 -277zM600 1692l291 260l291 -260l-70 -78l-221 201l-223 -201z" />
<glyph unicode="&#xd5;" horiz-adv-x="1794" d="M113 741q0 170 64.5 319.5t171.5 252t248.5 161t293.5 58.5q170 0 319.5 -64.5t251.5 -171.5t160.5 -248.5t58.5 -293.5q0 -170 -64.5 -319.5t-171.5 -252t-248.5 -161t-293.5 -58.5q-170 0 -319.5 64.5t-251.5 171.5t-160.5 248.5t-58.5 293.5zM223 743 q0 -128 49.5 -248.5t136 -214t215.5 -150t277 -56.5q129 0 250 49.5t214 136t149.5 214t56.5 274.5q0 183 -87.5 337t-244.5 245t-348 91q-128 0 -248.5 -49.5t-213.5 -136t-149.5 -215.5t-56.5 -277zM604 1704q8 15 17.5 28.5t31.5 38.5t54 40.5t67 15.5q38 0 75 -17.5 t60.5 -38t50 -38t46.5 -17.5q38 0 81 70l91 -49q-19 -28 -25 -36t-25.5 -30.5t-35 -31t-41.5 -17t-56 -8.5q-43 0 -84 28t-75.5 56t-59.5 28q-23 0 -45 -20t-37 -49z" />
<glyph unicode="&#xd6;" horiz-adv-x="1794" d="M113 741q0 170 64.5 319.5t171.5 252t248.5 161t293.5 58.5q170 0 319.5 -64.5t251.5 -171.5t160.5 -248.5t58.5 -293.5q0 -170 -64.5 -319.5t-171.5 -252t-248.5 -161t-293.5 -58.5q-170 0 -319.5 64.5t-251.5 171.5t-160.5 248.5t-58.5 293.5zM223 743 q0 -128 49.5 -248.5t136 -214t215.5 -150t277 -56.5q129 0 250 49.5t214 136t149.5 214t56.5 274.5q0 183 -87.5 337t-244.5 245t-348 91q-128 0 -248.5 -49.5t-213.5 -136t-149.5 -215.5t-56.5 -277zM590 1712q0 41 29 69.5t69 28.5q41 0 69.5 -28.5t28.5 -69.5 q0 -40 -28.5 -69t-69.5 -29q-40 0 -69 29t-29 69zM993 1712q0 41 29.5 69.5t69.5 28.5q41 0 69.5 -28.5t28.5 -69.5q0 -40 -28.5 -69t-69.5 -29q-40 0 -69.5 29t-29.5 69z" />
<glyph unicode="&#xd9;" horiz-adv-x="1617" d="M246 524v967h110v-963q0 -84 32 -164t90 -143.5t146 -102t191 -38.5q83 0 163 32.5t143.5 90.5t102 145.5t38.5 190.5v952h110v-952q0 -128 -48 -237t-127 -180.5t-178.5 -112t-203.5 -40.5q-128 0 -237 48t-180.5 126.5t-111.5 177.5t-40 203zM475 1915l90 92l307 -328 l-63 -65z" />
<glyph unicode="&#xda;" horiz-adv-x="1617" d="M246 524v967h110v-963q0 -84 32 -164t90 -143.5t146 -102t191 -38.5q83 0 163 32.5t143.5 90.5t102 145.5t38.5 190.5v952h110v-952q0 -128 -48 -237t-127 -180.5t-178.5 -112t-203.5 -40.5q-128 0 -237 48t-180.5 126.5t-111.5 177.5t-40 203zM745 1679l308 328l90 -92 l-334 -301z" />
<glyph unicode="&#xdb;" horiz-adv-x="1617" d="M246 524v967h110v-963q0 -84 32 -164t90 -143.5t146 -102t191 -38.5q83 0 163 32.5t143.5 90.5t102 145.5t38.5 190.5v952h110v-952q0 -128 -48 -237t-127 -180.5t-178.5 -112t-203.5 -40.5q-128 0 -237 48t-180.5 126.5t-111.5 177.5t-40 203zM518 1692l291 260 l291 -260l-68 -78l-223 201l-223 -201z" />
<glyph unicode="&#xdc;" horiz-adv-x="1617" d="M246 524v967h110v-963q0 -84 32 -164t90 -143.5t146 -102t191 -38.5q83 0 163 32.5t143.5 90.5t102 145.5t38.5 190.5v952h110v-952q0 -128 -48 -237t-127 -180.5t-178.5 -112t-203.5 -40.5q-128 0 -237 48t-180.5 126.5t-111.5 177.5t-40 203zM508 1712q0 41 29 69.5 t69 28.5q41 0 70 -28.5t29 -69.5q0 -40 -29 -69t-70 -29q-40 0 -69 29t-29 69zM911 1712q0 41 29.5 69.5t69.5 28.5q41 0 69.5 -28.5t28.5 -69.5q0 -40 -28.5 -69t-69.5 -29q-40 0 -69.5 29t-29.5 69z" />
<glyph unicode="&#xdd;" horiz-adv-x="1218" d="M82 1464l100 47l426 -917l428 917l101 -47l-473 -1013v-451h-111v453zM547 1679l307 328l92 -92l-336 -301z" />
<glyph unicode="&#xe0;" d="M143 535q0 125 47 234t125 182t179.5 115t210.5 42q244 0 368 -178v143h103v-1073h-103v156q-124 -183 -356 -183q-125 0 -234 47t-182.5 125t-115.5 179.5t-42 210.5zM246 537q0 -121 57.5 -225.5t166.5 -170t245 -65.5q105 0 199.5 45.5t158.5 126.5v586 q-64 80 -158.5 126t-207.5 46q-121 0 -225.5 -57.5t-170 -166.5t-65.5 -245zM371 1491l90 92l307 -328l-63 -65z" />
<glyph unicode="&#xe1;" d="M143 535q0 125 47 234t125 182t179.5 115t210.5 42q244 0 368 -178v143h103v-1073h-103v156q-124 -183 -356 -183q-125 0 -234 47t-182.5 125t-115.5 179.5t-42 210.5zM246 537q0 -121 57.5 -225.5t166.5 -170t245 -65.5q105 0 199.5 45.5t158.5 126.5v586 q-64 80 -158.5 126t-207.5 46q-121 0 -225.5 -57.5t-170 -166.5t-65.5 -245zM641 1255l307 328l90 -92l-333 -301z" />
<glyph unicode="&#xe2;" d="M143 535q0 125 47 234t125 182t179.5 115t210.5 42q244 0 368 -178v143h103v-1073h-103v156q-124 -183 -356 -183q-125 0 -234 47t-182.5 125t-115.5 179.5t-42 210.5zM246 537q0 -121 57.5 -225.5t166.5 -170t245 -65.5q105 0 199.5 45.5t158.5 126.5v586 q-64 80 -158.5 126t-207.5 46q-121 0 -225.5 -57.5t-170 -166.5t-65.5 -245zM414 1266l291 262l290 -262l-67 -76l-223 199l-222 -199z" />
<glyph unicode="&#xe3;" d="M143 535q0 125 47 234t125 182t179.5 115t210.5 42q244 0 368 -178v143h103v-1073h-103v156q-124 -183 -356 -183q-125 0 -234 47t-182.5 125t-115.5 179.5t-42 210.5zM246 537q0 -121 57.5 -225.5t166.5 -170t245 -65.5q105 0 199.5 45.5t158.5 126.5v586 q-64 80 -158.5 126t-207.5 46q-121 0 -225.5 -57.5t-170 -166.5t-65.5 -245zM418 1280q8 15 17.5 28.5t32 38.5t54.5 40.5t68 15.5q48 0 92 -28.5t79 -56.5t60 -28q41 0 80 72l90 -49q-17 -26 -23.5 -35.5t-25.5 -31t-34.5 -30.5t-42 -17.5t-56.5 -8.5q-34 0 -67.5 17 t-55.5 38t-48 38t-46 17q-47 0 -84 -69z" />
<glyph unicode="&#xe4;" d="M143 535q0 125 47 234t125 182t179.5 115t210.5 42q244 0 368 -178v143h103v-1073h-103v156q-124 -183 -356 -183q-125 0 -234 47t-182.5 125t-115.5 179.5t-42 210.5zM246 537q0 -121 57.5 -225.5t166.5 -170t245 -65.5q105 0 199.5 45.5t158.5 126.5v586 q-64 80 -158.5 126t-207.5 46q-121 0 -225.5 -57.5t-170 -166.5t-65.5 -245zM406 1288q0 40 28.5 69t69.5 29q40 0 69 -29t29 -69t-29 -69t-69 -29q-41 0 -69.5 29t-28.5 69zM809 1288q0 40 28.5 69t69.5 29q40 0 69.5 -29t29.5 -69t-29.5 -69t-69.5 -29q-41 0 -69.5 29 t-28.5 69z" />
<glyph unicode="&#xe5;" d="M143 535q0 125 47 234t125 182t179.5 115t210.5 42q244 0 368 -178v143h103v-1073h-103v156q-124 -183 -356 -183q-125 0 -234 47t-182.5 125t-115.5 179.5t-42 210.5zM246 537q0 -121 57.5 -225.5t166.5 -170t245 -65.5q105 0 199.5 45.5t158.5 126.5v586 q-64 80 -158.5 126t-207.5 46q-121 0 -225.5 -57.5t-170 -166.5t-65.5 -245zM508 1380q0 84 53 143.5t137 59.5t143.5 -53t59.5 -137q0 -83 -53 -143t-137 -60q-83 0 -143 53t-60 137zM610 1382q0 -34 25.5 -62t73.5 -28q34 0 62 25.5t28 73.5q0 34 -25.5 62t-73.5 28 q-33 0 -61.5 -25.5t-28.5 -73.5z" />
<glyph unicode="&#xe7;" horiz-adv-x="1245" d="M143 535q0 125 47 234t125 182t179.5 115t210.5 42q126 0 232.5 -46.5t184.5 -127.5l-73 -74q-136 146 -342 146q-121 0 -225.5 -57.5t-170 -166.5t-65.5 -245q0 -121 57.5 -225.5t166.5 -170t245 -65.5q95 0 182 37.5t152 105.5l73 -72q-78 -83 -184.5 -128.5 t-220.5 -45.5q-125 0 -234 47t-182.5 125t-115.5 179.5t-42 210.5zM545 -268h88q0 -34 21.5 -58t62.5 -24q30 0 55 21.5t25 62.5q0 29 -22.5 53.5t-63.5 24.5q-19 0 -38.5 -10t-29.5 -29l-78 43l84 143l17 29h102l-16 -29l-47 -80q15 10 43 10q29 0 49 -10 q39 -17 63.5 -56.5t24.5 -86.5q0 -71 -46.5 -122.5t-119.5 -51.5t-123.5 47t-50.5 123z" />
<glyph unicode="&#xe8;" horiz-adv-x="1345" d="M143 535q0 125 47 234t125.5 182t180.5 115t211 42q199 0 345.5 -111t200.5 -284l-1007 -176q0 -90 34.5 -173.5t94.5 -147t149.5 -102t192.5 -38.5q125 0 233 63l51 -88q-132 -78 -284 -78q-125 0 -234 47t-182.5 125t-115.5 179.5t-42 210.5zM258 641l848 150 q-62 99 -165.5 157t-233.5 58q-159 0 -286.5 -100.5t-162.5 -264.5zM371 1491l90 92l309 -328l-63 -65z" />
<glyph unicode="&#xe9;" horiz-adv-x="1345" d="M143 535q0 125 47 234t125.5 182t180.5 115t211 42q199 0 345.5 -111t200.5 -284l-1007 -176q0 -90 34.5 -173.5t94.5 -147t149.5 -102t192.5 -38.5q125 0 233 63l51 -88q-132 -78 -284 -78q-125 0 -234 47t-182.5 125t-115.5 179.5t-42 210.5zM258 641l848 150 q-62 99 -165.5 157t-233.5 58q-159 0 -286.5 -100.5t-162.5 -264.5zM643 1255l307 328l90 -92l-333 -301z" />
<glyph unicode="&#xea;" horiz-adv-x="1345" d="M143 535q0 125 47 234t125.5 182t180.5 115t211 42q199 0 345.5 -111t200.5 -284l-1007 -176q0 -90 34.5 -173.5t94.5 -147t149.5 -102t192.5 -38.5q125 0 233 63l51 -88q-132 -78 -284 -78q-125 0 -234 47t-182.5 125t-115.5 179.5t-42 210.5zM258 641l848 150 q-62 99 -165.5 157t-233.5 58q-159 0 -286.5 -100.5t-162.5 -264.5zM416 1266l291 262l290 -262l-69 -76l-221 199l-224 -199z" />
<glyph unicode="&#xeb;" horiz-adv-x="1345" d="M143 535q0 125 47 234t125.5 182t180.5 115t211 42q199 0 345.5 -111t200.5 -284l-1007 -176q0 -90 34.5 -173.5t94.5 -147t149.5 -102t192.5 -38.5q125 0 233 63l51 -88q-132 -78 -284 -78q-125 0 -234 47t-182.5 125t-115.5 179.5t-42 210.5zM258 641l848 150 q-62 99 -165.5 157t-233.5 58q-159 0 -286.5 -100.5t-162.5 -264.5zM406 1288q0 40 29 69t69 29q41 0 69.5 -29t28.5 -69t-28.5 -69t-69.5 -29q-40 0 -69 29t-29 69zM809 1288q0 40 29 69t69 29q41 0 70 -29t29 -69t-29 -69t-70 -29q-40 0 -69 29t-29 69z" />
<glyph unicode="&#xec;" horiz-adv-x="688" d="M12 1491l90 92l308 -328l-64 -65zM295 0v1073h102v-1073h-102z" />
<glyph unicode="&#xed;" horiz-adv-x="688" d="M283 1255l307 328l90 -92l-334 -301zM295 0v1073h102v-1073h-102z" />
<glyph unicode="&#xee;" horiz-adv-x="688" d="M55 1266l291 262l291 -262l-68 -76l-223 199l-223 -199zM295 0v1073h102v-1073h-102z" />
<glyph unicode="&#xef;" horiz-adv-x="688" d="M45 1288q0 40 29 69t69 29q41 0 70 -29t29 -69t-29 -69t-70 -29q-40 0 -69 29t-29 69zM295 0v1073h102v-1073h-102zM451 1288q0 40 28.5 69t69.5 29q40 0 69 -29t29 -69t-29 -69t-69 -29q-41 0 -69.5 29t-28.5 69z" />
<glyph unicode="&#xf1;" horiz-adv-x="1447" d="M246 0v1073h102v-272q14 65 87 136.5t180 121t206 49.5q115 0 204 -55.5t133 -139.5t44 -178v-735h-102v733q0 108 -77.5 190.5t-203.5 82.5q-103 0 -192.5 -38.5t-149.5 -102t-94.5 -147t-34.5 -173.5v-545h-102zM436 1280q8 14 18 28t32.5 39t54.5 40.5t67 15.5 q38 0 75 -17.5t60.5 -39t50 -39t46.5 -17.5q40 0 82 72l90 -49q-19 -28 -25 -36t-25.5 -30.5t-35 -31t-41.5 -17t-56 -8.5q-43 0 -84 27.5t-75.5 55t-59.5 27.5q-47 0 -84 -69z" />
<glyph unicode="&#xf2;" d="M143 535q0 125 47 234t125 182t179.5 115t210.5 42q125 0 234 -47t182 -124.5t115 -179t42 -210.5q0 -166 -80 -299.5t-207.5 -204t-273.5 -70.5q-125 0 -234 47t-182.5 125t-115.5 179.5t-42 210.5zM246 537q0 -121 57.5 -225.5t166.5 -170t245 -65.5q121 0 225.5 57.5 t170 166.5t65.5 245q0 121 -57.5 225.5t-166.5 170t-245 65.5q-121 0 -225.5 -57.5t-170 -166.5t-65.5 -245zM371 1491l90 92l307 -328l-63 -65z" />
<glyph unicode="&#xf3;" d="M143 535q0 125 47 234t125 182t179.5 115t210.5 42q125 0 234 -47t182 -124.5t115 -179t42 -210.5q0 -166 -80 -299.5t-207.5 -204t-273.5 -70.5q-125 0 -234 47t-182.5 125t-115.5 179.5t-42 210.5zM246 537q0 -121 57.5 -225.5t166.5 -170t245 -65.5q121 0 225.5 57.5 t170 166.5t65.5 245q0 121 -57.5 225.5t-166.5 170t-245 65.5q-121 0 -225.5 -57.5t-170 -166.5t-65.5 -245zM641 1255l307 328l90 -92l-333 -301z" />
<glyph unicode="&#xf4;" d="M143 535q0 125 47 234t125 182t179.5 115t210.5 42q125 0 234 -47t182 -124.5t115 -179t42 -210.5q0 -166 -80 -299.5t-207.5 -204t-273.5 -70.5q-125 0 -234 47t-182.5 125t-115.5 179.5t-42 210.5zM246 537q0 -121 57.5 -225.5t166.5 -170t245 -65.5q121 0 225.5 57.5 t170 166.5t65.5 245q0 121 -57.5 225.5t-166.5 170t-245 65.5q-121 0 -225.5 -57.5t-170 -166.5t-65.5 -245zM414 1266l291 262l290 -262l-67 -76l-223 199l-222 -199z" />
<glyph unicode="&#xf5;" d="M143 535q0 125 47 234t125 182t179.5 115t210.5 42q125 0 234 -47t182 -124.5t115 -179t42 -210.5q0 -166 -80 -299.5t-207.5 -204t-273.5 -70.5q-125 0 -234 47t-182.5 125t-115.5 179.5t-42 210.5zM246 537q0 -121 57.5 -225.5t166.5 -170t245 -65.5q121 0 225.5 57.5 t170 166.5t65.5 245q0 121 -57.5 225.5t-166.5 170t-245 65.5q-121 0 -225.5 -57.5t-170 -166.5t-65.5 -245zM418 1280q8 15 17.5 28.5t32 38.5t54.5 40.5t68 15.5q48 0 92 -28.5t79 -56.5t60 -28q41 0 80 72l90 -49q-17 -26 -23.5 -35.5t-25.5 -31t-34.5 -30.5t-42 -17.5 t-56.5 -8.5q-34 0 -67.5 17t-55.5 38t-48 38t-46 17q-47 0 -84 -69z" />
<glyph unicode="&#xf6;" d="M143 535q0 125 47 234t125 182t179.5 115t210.5 42q125 0 234 -47t182 -124.5t115 -179t42 -210.5q0 -166 -80 -299.5t-207.5 -204t-273.5 -70.5q-125 0 -234 47t-182.5 125t-115.5 179.5t-42 210.5zM246 537q0 -121 57.5 -225.5t166.5 -170t245 -65.5q121 0 225.5 57.5 t170 166.5t65.5 245q0 121 -57.5 225.5t-166.5 170t-245 65.5q-121 0 -225.5 -57.5t-170 -166.5t-65.5 -245zM406 1288q0 40 28.5 69t69.5 29q40 0 69 -29t29 -69t-29 -69t-69 -29q-41 0 -69.5 29t-28.5 69zM809 1288q0 40 28.5 69t69.5 29q40 0 69.5 -29t29.5 -69 t-29.5 -69t-69.5 -29q-41 0 -69.5 29t-28.5 69z" />
<glyph unicode="&#xf9;" horiz-adv-x="1447" d="M246 346v727h102v-725q0 -108 77.5 -190t203.5 -82q103 0 192.5 38.5t149.5 102t94.5 147t34.5 173.5v536h102v-1073h-102v281q-14 -65 -87 -137t-180 -121.5t-206 -49.5q-115 0 -204 55.5t-133 139.5t-44 178zM389 1491l90 92l307 -328l-63 -65z" />
<glyph unicode="&#xfa;" horiz-adv-x="1447" d="M246 346v727h102v-725q0 -108 77.5 -190t203.5 -82q103 0 192.5 38.5t149.5 102t94.5 147t34.5 173.5v536h102v-1073h-102v281q-14 -65 -87 -137t-180 -121.5t-206 -49.5q-115 0 -204 55.5t-133 139.5t-44 178zM659 1255l308 328l92 -92l-336 -301z" />
<glyph unicode="&#xfb;" horiz-adv-x="1447" d="M246 346v727h102v-725q0 -108 77.5 -190t203.5 -82q103 0 192.5 38.5t149.5 102t94.5 147t34.5 173.5v536h102v-1073h-102v281q-14 -65 -87 -137t-180 -121.5t-206 -49.5q-115 0 -204 55.5t-133 139.5t-44 178zM432 1266l291 262l291 -262l-68 -76l-223 199l-221 -199z " />
<glyph unicode="&#xfc;" horiz-adv-x="1447" d="M246 346v727h102v-725q0 -108 77.5 -190t203.5 -82q103 0 192.5 38.5t149.5 102t94.5 147t34.5 173.5v536h102v-1073h-102v281q-14 -65 -87 -137t-180 -121.5t-206 -49.5q-115 0 -204 55.5t-133 139.5t-44 178zM424 1288q0 40 28.5 69t69.5 29q40 0 69.5 -29t29.5 -69 t-29.5 -69t-69.5 -29q-41 0 -69.5 29t-28.5 69zM827 1288q0 40 29 69t70 29q40 0 69 -29t29 -69t-29 -69t-69 -29q-41 0 -70 29t-29 69z" />
<glyph unicode="&#xfd;" horiz-adv-x="1220" d="M92 1065l92 43l426 -911l426 911l92 -43l-702 -1505l-92 45l219 471zM539 1255l307 328l92 -92l-336 -301z" />
<glyph unicode="&#xff;" horiz-adv-x="1220" d="M92 1065l92 43l426 -911l426 911l92 -43l-702 -1505l-92 45l219 471zM319 1288q0 41 29 69.5t70 28.5q40 0 69 -28.5t29 -69.5q0 -40 -29 -69t-69 -29q-41 0 -70 29t-29 69zM723 1288q0 41 28.5 69.5t69.5 28.5q40 0 69.5 -28.5t29.5 -69.5q0 -40 -29.5 -69t-69.5 -29 q-41 0 -69.5 29t-28.5 69z" />
<glyph unicode="&#x178;" horiz-adv-x="1218" d="M82 1464l100 47l426 -917l428 917l101 -47l-473 -1013v-451h-111v453zM311 1712q0 41 29 69.5t70 28.5q40 0 69 -28.5t29 -69.5q0 -40 -29 -69t-69 -29q-41 0 -70 29t-29 69zM715 1712q0 41 28.5 69.5t69.5 28.5q40 0 69 -28.5t29 -69.5q0 -40 -29 -69t-69 -29 q-41 0 -69.5 29t-28.5 69z" />
<glyph unicode="&#x2c6;" horiz-adv-x="786" d="M102 1268l291 260l291 -260l-68 -78l-223 201l-221 -201z" />
<glyph unicode="&#x2dc;" horiz-adv-x="778" d="M102 1282q41 66 83 94q43 29 89 29q38 0 74.5 -17.5t60.5 -39t50.5 -39t46.5 -17.5q40 0 80 70l90 -49q-17 -26 -23.5 -35.5t-25.5 -31t-34.5 -30.5t-42 -17.5t-56.5 -8.5q-34 0 -67.5 17.5t-55.5 39t-48 39t-47 17.5q-43 0 -83 -70z" />
<glyph unicode="&#x2000;" horiz-adv-x="1006" />
<glyph unicode="&#x2001;" horiz-adv-x="2013" />
<glyph unicode="&#x2002;" horiz-adv-x="1006" />
<glyph unicode="&#x2003;" horiz-adv-x="2013" />
<glyph unicode="&#x2004;" horiz-adv-x="671" />
<glyph unicode="&#x2005;" horiz-adv-x="503" />
<glyph unicode="&#x2006;" horiz-adv-x="335" />
<glyph unicode="&#x2007;" horiz-adv-x="335" />
<glyph unicode="&#x2008;" horiz-adv-x="251" />
<glyph unicode="&#x2009;" horiz-adv-x="402" />
<glyph unicode="&#x200a;" horiz-adv-x="111" />
<glyph unicode="&#x2010;" horiz-adv-x="727" d="M61 575l588 105l17 -100l-586 -105z" />
<glyph unicode="&#x2011;" horiz-adv-x="727" d="M61 575l588 105l17 -100l-586 -105z" />
<glyph unicode="&#x2012;" horiz-adv-x="727" d="M61 575l588 105l17 -100l-586 -105z" />
<glyph unicode="&#x2013;" horiz-adv-x="1024" d="M0 487v103h1024v-103h-1024z" />
<glyph unicode="&#x2014;" horiz-adv-x="2048" d="M0 487v103h2048v-103h-2048z" />
<glyph unicode="&#x2018;" horiz-adv-x="458" d="M82 1616l123 43l131 -430l-86 -29z" />
<glyph unicode="&#x2019;" horiz-adv-x="456" d="M123 1229l131 430l123 -43l-168 -416z" />
<glyph unicode="&#x201a;" horiz-adv-x="499" d="M123 -225l131 430l123 -43l-168 -416z" />
<glyph unicode="&#x201c;" horiz-adv-x="751" d="M82 1616l121 43l131 -430l-86 -29zM375 1616l123 43l131 -430l-86 -29z" />
<glyph unicode="&#x201d;" horiz-adv-x="751" d="M123 1229l131 430l123 -43l-168 -416zM418 1229l131 430l121 -43l-166 -416z" />
<glyph unicode="&#x201e;" horiz-adv-x="792" d="M123 -225l131 430l123 -43l-168 -416zM418 -225l131 430l121 -43l-166 -416z" />
<glyph unicode="&#x2026;" horiz-adv-x="2048" d="M246 90q0 40 28.5 69t69.5 29q40 0 69 -29t29 -69t-29 -69t-69 -29q-41 0 -69.5 29t-28.5 69zM926 90q0 40 29 69t69 29q41 0 69.5 -29t28.5 -69t-28.5 -69t-69.5 -29q-40 0 -69 29t-29 69zM1610 90q0 40 28.5 69t69.5 29q40 0 69 -29t29 -69t-29 -69t-69 -29 q-41 0 -69.5 29t-28.5 69z" />
<glyph unicode="&#x202f;" horiz-adv-x="402" />
<glyph unicode="&#x2039;" horiz-adv-x="651" d="M164 539l215 383l90 -50l-188 -333l188 -332l-90 -51z" />
<glyph unicode="&#x203a;" horiz-adv-x="653" d="M184 207l189 332l-189 333l90 50l215 -383l-215 -383z" />
<glyph unicode="&#x205f;" horiz-adv-x="503" />
<glyph unicode="&#x20ac;" horiz-adv-x="1308" d="M61 584l39 96h144q27 94 77 169.5t107 122t123 77.5t122 43t107 12q126 0 225 -39t193 -129q-38 -94 -41 -94q-2 0 -17 16.5t-43.5 41t-67.5 48.5t-100 42t-130 20h-11q-149 0 -269 -89t-169 -223l-6 -18h746l-39 -96h-727q0 -2 -1 -17t-1 -28q0 -15 1 -30t1 -17h688 l-41 -97h-627l6 -18q31 -82 84 -144.5t115 -97.5t122.5 -52t116.5 -17q68 0 131.5 17t104.5 42t72.5 49.5t45.5 41.5l15 17v-131l-20 -16q-154 -115 -342 -115q-38 0 -78.5 5t-99.5 23.5t-112 49t-110 86.5t-98 131q-32 59 -53 129h-176l38 97h123q-2 8 -2 45q0 39 2 47 h-168z" />
<glyph unicode="&#x25fc;" horiz-adv-x="1116" d="M0 0v1116h1116v-1116h-1116z" />
</font>
</defs>
</svg>
